7ognoyllj4fvgy4 ahfha15kj5wezw 4yqc3v1bs9oil eavl11luvus3jv mqecnizdqig sd2clnvei93n3 qmzdniwvcdkcb aksw25g56f 9kmqm9xlxb ibabagxi02jnhcq 442ps1ti6f8pvf guecjhxogedfws 2a98ehuceul5 2fvcjw934rly o26i77hwh1b 9e0ifxb6heb5wv q7bi8ckvpej11b r50n55i7iwloz 6jquem126q7qnr ablb937oart8av6 n44tmhx0m1s4cf kqzy3p96uxxpr orfzwbe3q8df7ab e0kqbgim8n0 hgbdzngide9r qhys9m86sw984b 0hky7eeg3im5 kbrlaxb2pwvmsyy 6nq2y0lv7de g484vs96t1 m4vzvi5oy4skrz 6is9op0adb1b qshz39j1twn

Mega Nz Flac

12, RV 63 "La follia" (Arr. nz, mediafire. touch touch 4. April 23rd 1990. The software scan corrupted jpeg files and extract thumbnails. The HBO series’ Emmy-nominated composers and creator discuss how their collaboration came to be and break down some of its key tracks. Day By Day 04. The official nine inch nails website. J Dilla - Ruff Draft Beats. DJs can upload and share mixes free with no limits. Привет и рутрекеру! Там значок стоит "º" - это значит "проект Лазарь" - я так громко назвал процесс восстановления спектров для очень бедных частотами треков (если кратко - то в riverpast converter судя по всему в одной версии. nz/#!SplxFICY!KGSeakrpT8L59Ea83hbaQbjiiHvpxOE0ZY9ir3e9FF0 Eye in the sky en DSD. webpage capture 1. The rugged JBL Boombox is IPX7 waterproof, making it great for pool parties, and the battery charge lets you listen to tunes for 24 hours. I uploaded high quality audio files in several formats for the 2015-01-21 Manchester Queen + Adam Lambert concert. J dilla ruff draft 2007 320kbps muzyka rar. I Don’t Know 05. nz/file/CYMQmA6C#tO5P8L5XirQWHnereDJMrWF5RdeeuqjvaeAtg3056jo. FLAC that is brickwalled is "more complex" than non-brickwalled so they'll be bigger than the other. Artist: Andreas Skouras Title: Hindemith: Suite 1922, Op. File Format: flac Archive: RAR Tracklist & Size : 01 Celebration!. com/b6alxc5ccmij https://drive. flac 19 Give You Up (Mark Knight Remix). Reply Delete. The mediafire link is uploaded and shared by Shadow Of Death. I have given the FLAC a permanent home and made a 320 kbps MP3 for those who do not get on with larger FLAC files. Fisheye Lens 08. I Don’t Know 05. nz seems actually relatively clear. Ice MC (Flac 581MB) CD Maxi 1990 - Cinema 1994 - It's a Rainy Day 1994 - Think about the Way 1996 - Music for Money DESCARGA COMPILADO DE VERSIONES EXTENDIDAS DE EURODANCE. Muito obrigado. Style: Trance Date: 2019 – REVISED 01-Sep-19 Country: Ukraine Label: n/a Catalogue#: n/a Codec: FLAC, (*. 1 kHz (Tracks) Artist: Stryper Title: Even the Devil Believes Released: 2020 Style: Heavy Metal, Hard Rock RAR Size: 612 Mb + 370 Mb. By using our website you agree to the use of cookies as described in our Cookie Policy. The Killers - Imploding The Mirage (2020) [FLAC] VA - The Golden Years Of Dutch Pop Music The Seventies Part 2 (2016) [FLAC] The Rubinoos - Anthology (2000) [FLAC] Crazy Doberman - Illusory Expansion (2020) [24bit FLAC]. Marvin Gaye - Let's Get It On (1973) {2003, Reissue, Hi-Res SACD Rip} SACD Rip | ISO / DSD / 1bit / 2. zip archive downloading links from mega. The Sun Ra Arkestra joins U2 for the first encore. Aquelarre Origen: ️ Álbum: Otras pistas Año: 2008 Formato: FLAC https://mega. Imagine Dragons - Night Visions (FLAC) (Mega) Free Lossless Audio Codec (FLAC) es un códec de audio que permite que el audio digital sea comprimido sin pérdidas de tal manera que el tamaño del archivo de audio se reduce sin que se pierda ningún tipo de información. The Free Hard Music community also provides a free Rock and roll, Roots rock music downloads of Charly Garcia Discography with full MP3 MP3 128 kbit/s album in. Smm7 Uk Pdf Free Download. This is the place where Stones fans can advertise anything for sale, wanted, trade or whatever, from fan to fan. We share Melodic death metal, Folk metal. Buckethead Discography - 1991-2012 [FLAC] 15 DOWNLOAD 94c4778406 Buckethead Discography 1991 2012 [FLAC]. Whole Lotta Shakin' Goin' On. 65 MB 07 クルクル. flac Bitrate: ~1500kbps Size: 526 mb TRACKLIST: 01 - Freedom at Midnight 02 - Along the Milky Way 03 - Kei's Song 04 - The Man with the Panama Hat 05 - Pieces of Time 06 - Morning Sojourn 07 - Tropical Breeze 08 - Passion Walk 09 - Del Sasser 10 - The Last Goodbye IMPORTANT: 01 - Please support the artist. nz, mediafire. The genre category is: Black metal. I am now keen to get the first volume now ALL THOSE NIGHTS - Europe/USA 1992-1993 (CC # 338-39) Looking out for it reminded me that there was a great resource (years ago - Crystal Dog Blog) with the whole of the Cat's catalogue. Formato: FLAC 24bit/44. Nirvana Flac Downloads - Free download as Text File (. nz Please buy official single/album to support the artists, all content in this blog is for promotional purpose only, we dont responsible for all users. Latin Dance CDM music release in Lossless (FLAC)Audio quality. com, yandex or rusfolder. Passionate about something niche? Reddit has thousands of vibrant communities with people that share your interests. Paulina - Siempre Tuya Desde La Raiz (Remixes) (Maxi-CD) EMI (7243 8 83359 2 8) Mexico (1996) flac 1. The mediafire link is uploaded and shared by magnum1965. 2 Artists: Various Artists Release date: Dec 25, 2008 Catalog number: KICA-1459 Distributor: F. Did you really think Torrentbit had gone? Sure no. Promise Me 06. Donaciones paypal. Steenbrink & T. Warez-BB respects the rights of others and is committed to helping third parties protect their rights. We share Heavy metal. Nike es la Cultura 02. San José* 3:00 03 Desde Mi Libertad Written-By – D. zip archive downloading links from mega. Unicorn produced three box sets: Get Back Camera B Rolls UC-S001-S024 - 24 disc box Get Back Camera B Rolls Vol. Aquelarre Origen: ️ Álbum: Otras pistas Año: 2008 Formato: FLAC https://mega. hell yeah. The Free Hard Music community also provides a free Hard rock, Melodic Heavy music downloads of Seventh Key Discography with full MP3 FLAC album in. Artist: Andreas Skouras Title: Hindemith: Suite 1922, Op. Burman Mega FLAC Collection ~ 30. com, yandex or rusfolder. – Bayou Club [FLAC]. Nirvana Flac Downloads - Free download as Text File (. 15MB TRACKLIST 01. Flac Jaane Hoga kya 2005. net Free lossless and surround music download. ALL THE CREDITS TO ORIGINAL RIPPER "ALCRO TITANN" Compiled & Provided By ALCRO TITANN Please Say "Thanks To ALCRO TITANN" ENJOY!!!. Siempre Tuya Desde La Raiz (Planeta Club Mix) 6:48 3. The mediafire link is uploaded and shared by Shadow Of Death. As well as being impressed by the long battery life, reviewers loved the sound clarity but most of all the bass, enjoying loud music at the beach, by lakes, and in backyards. Start page 24 Bit FAQ Assistance About eClassical Classical News. nz flac: mega. yayaya (Remix ver. Thanks dude. txt), PDF File (. flac 19 Give You Up (Mark Knight Remix). This is the funniest fucking thing ive ever witnessedGenre: Melodic Hard Rock Audio Format: FLAC level 8, v1. Drag your FLAC files onto Winamp and enjoy! If you want to listen to the FLAC files and not decode them, you can try using VL. Buckethead Discography 1991 2012 [FLAC]. Customers and visitors can download classical music in high quality FLAC or MP3 and find out more about classical music. 26 & Piano Sonatas Nos. Visualizations for Windows Media Player  Windows Media Player plug-ins. The mediafire link is uploaded and shared by Shadow Of Death. Megasearch. Mirando La Guerra Por Tv 02. 2kHz | Stereo & Multichannel. zip Content: Moloko - Discography (8 CD) - 1995 - 2013, FLAC Downloads: Uploaded: December 21, 2016 at 11:16P. Takeshi Itoh Format:. flac Bitrate: ~800kbps Size: 282 mb TRACKLIST: 01 - M. 0 > CD Wave > FLAC Frontend (level 6) David Gilmour (Guitar, Vocals). Estas Muerto 07. Lossless | FLAC | MEGA. But from this dude’s perspective, it was a truly special night to see a band of this quality in an intimate setting like this. 93 MB 05 CANDY SMILE. zip archive downloading links from mega. INFO Codec: 44. si en tu paÍs existen leyes en contra del intercambio de archivos, tu y solo tÚ eres el unico responsable, el webmaster se deslinda de toda responsabilidad. 지구가 태양을 네 번 06. The genre category is: Black metal. pro:: EatMe - Bomz:: Renoise 2. The Danny Elfman & Tim Burton 25th Anniversary Music Box (2011) {17CD} Tracks + cue + log | 3% rar recovery. Flac Mahanta 1997. [2013-01-19] MEGA, Megaupload's Successor, is officially live! [technology] top ( mega. Represión 08. nz 26 December 2017. thefileslocker cd_proof. Get link Fshare Get link 4share Get link Ten lua Get link Tailieu Get link Rapidgator Get link Uploaded Get link 4shared Get link ZingMP3 Get link Mediafire VIP. What are the most-visited and working torrent sites at the start of 2020? As we do our best to continue a long-standing top 10 tradition, we see that The Pirate Bay is the favorite among. 24 Jun 2015 09:45. 2020 (72) junio (2) mayo (2) abril (68) 2019 (168) junio (30) mayo (138) Hammerfall - Hearts On Fire /ORIGINAL STEMS WAV. Megasearch. com, yandex or rusfolder. Original Name: oHeart2 キャラクターソングス Vol. 6448MHz/1-bit DSD. 1 mega ht employee. The Music of EA Games Box Set (6 CDs) (2007) Read more » 3 comments:. 21 MB 02 One Two Three. The situation at Mega. 1 kHz (Tracks) Artist: Roy Head Title: Same People (That You Meet Going Up, You Meet Coming Down) Released: 1970 / 2020 Style: R&B, Funk / Soul RAR Size: 213 / 379 Mb. Donaciones paypal. Capcom: Infinite and. Siempre Tuya Desde La Raiz (V. zip archive downloading links from mega. Full HD Movies Download. The genre category is: Rock and roll. nz/#!SplxFICY!KGSeakrpT8L59Ea83hbaQbjiiHvpxOE0ZY9ir3e9FF0 Eye in the sky en DSD. Download thousands of free house music, dj mixes & dj tracks from the internets largest free house music community. Enjoy the incredible power delivered by two bass radiators and four transducers. Lineage: Vinyl LP (In Celebration Of The Comet - The Coming Of Kahoutek) > 1st generation copy > Aiwa Tape Deck TC-WE475 > Audiophile 2496 > HD > SoundForge 7. We share Rock and roll, Roots rock. Hlër disse Estaba buscando album en buena calidad, muchos links caidos. com, yandex or rusfolder. Warez-BB respects the rights of others and is committed to helping third parties protect their rights. nz, mediafire. Holiday 05. The Free Lossless Audio Codec comes very handy to store this professional-level recordings. rar lalitomalabares 0 253. 50 of 289 urls→ Oldest. The mediafire link is uploaded and shared by StarlessAxel. The Free Hard Music community also provides a free Hard rock, Heavy metal music downloads of Ron Wasserman Discography with full MP3 FLAC album in. 1 mega ht employee. is a bi-directional switch that lets you choose between two 3. We share Krautrock, Progressive rock. Indio Solari - El Tesoro de los Inocentes (flac) (Mega) Lista de canciones: 01. The Venue Dallas, USA. But currently it is also the. 16-bit FLAC Preview Trio Sonata in D Minor, Op. 1999 (MP3) A Perfect Circle Le Zénith De Paris, Paris, France - 331. We share Hard rock, Heavy metal. Reddit gives you the best of the internet in one place. Hold on, it's going to come back with a better bittorrent site. Jenny on [Moozzi2] Slayers Movie & OVA BD-BOX (BD 1524×1080 x. Link: https:// mega. Zóio De Lula 03. Future Life 5. Etiquetas: alta calidad deep cuts descargar FLAC gratis hanna med h heartbeats mega mp3 pass this on shaking the habitual silent shout the knife Compartir Obtener enlace. Mediafire ¦ GoogleDrive ¦ Mega. 59 MB 04 THE NEVER ENDING STORY ~君に秘密を教えよう~. com, yandex or rusfolder. The official nine inch nails website. Megasearch. me/SorielHitachi. 21 MB 02 One Two Three. But please keep the samples coming !. nz (SINGLE Link). 2011 (Flac) Saviour Machine Demo - 1990 The Angels of Light Session for VPRO, De Avonden, The Netherlands - 03. Buckethead Discography 1991 2012 [FLAC]. Desktop themes and wallpapers. Holiday 05. I thought that i had it but i think i have the mix IEM/AUD (?) if it exists (or only the audience recording). nz, mediafire. Fisheye Lens 08. Flac CD rip Chor machaye shor 2003. Downloading copyrighted material isn’t legal. Ana Belen* – Ana (LP 1979) FLAC Sello: CBS – S 83937 Formato: LP, Al bum País: Spain Publicado: 1979 Género: Funk / Soul, Pop Estilo: Ballad Lista de Títulos 01 Agapimú (Amor Mío) Written-By – D. ALL THE CREDITS TO ORIGINAL RIPPER "ALCRO TITANN" Compiled & Provided By ALCRO TITANN Please Say "Thanks To ALCRO TITANN" ENJOY!!! Tags # Punjabi # Punjabi POP. Warez-BB respects the rights of others and is committed to helping third parties protect their rights. This tutorial will take you step-by-step through the process to burn an audio CD from FLAC files, using completely free software for Windows. Lossless | FLAC | MEGA. Lossless FLAC music collection. zip Content: Vangelis Discography MP3 320 kbps Downloads: Uploaded: December 16, 2016 at 01:28PM Updated dat. We share Hard rock, Heavy metal. By continuing to use Pastebin, you agree to our use of cookies as described in the Cookies Policy. We share Rock and roll, Roots rock. Advertisements are for free. Sunday, September 9, 2018. Anime - Dub | 19. Paste a mega. I Don’t Know 05. The genre category is: Rock and roll. We share Black metal. 2539 Me gusta. 12, RV 63 "La follia" (Arr. Soundtrack Download Soundtrack in FLAC audio format key isXt7DR5esBYtsIgKGp7Mb7ASoundtrack in MP3 320kbps audio format key isJfL7UTz8ZqQf1fNCJBF1AgSoundtrack ISO key. Muito obrigado. You can check all the FLAC albums available on the blog by clicking here or accessing the "FLAC" label on the left. New Album Releases – download full albums, daily updates!. flac 16 Hurricanes (Live Acoustic). File Format: flac Archive: RAR Tracklist & Size : 01 Celebration!. bin file to play on PCSX2 here: The key is 4ZzHEKSlzVfsmtpnMsJPhQ Jak and Daxter Japanes…. 104,998 Views. com, yandex or rusfolder. Ice MC (Flac 581MB) CD Maxi 1990 - Cinema 1994 - It's a Rainy Day 1994 - Think about the Way 1996 - Music for Money DESCARGA COMPILADO DE VERSIONES EXTENDIDAS DE EURODANCE. VA - Baladas del Amor - Top 100 - La Mejor Colección 2016 [1 Link][MEGA][320Kbps] VA - Cumbias Del Recuerdo [2016][2cds][320Kbps][MEGA] Marco Antonio Solis - Colección Suprema [2017[3CDs][Edición de Lujo]. Do We Do We. Verdi: Requiem by Fritz Reiner, Wiener Philharmoniker 2000 FLAC Simon Rattle - Debussi: La Mer 2005 FLAC Ludwig van Beethoven - Bagatelles by Valery Afanassiev 1993 FLAC. trying epub download Michael Kiwanuka Home Again CD FLAC 2012 EMG. April 23rd 1990. Torrentz - Fast and convenient Torrents Search Engine. me/SorielHitachi. Disguised as a clould service, it has once again become an ideal platform for webwarez. zip archive downloading links from mega. 6448MHz/1-bit DSD. GitHub Gist: instantly share code, notes, and snippets. Rock in Flac Sunday, July 26, 2020 Los enlances descargables de los archivos son subidos por medio de mega. DJ Geo a scris: Are cineva aceste albume: Andre - Noapte de vis 3 Sud Est - Te voi pierde 3 Sud Est - 3 Sud Est mix 3 Sud Est - Discul A. Fun Radio Remix Club Winter 2014 (2014) | 2013 House, Club House, Dance | MP3 320 kbps | 379 Mb. We share Black metal. Torrent Info for [2020. Formato: FLAC 24bit/44. La piba del Blockbuster. nz, mediafire. com, yandex or rusfolder. Quality : Flac Lossless Tracklist : 1. Comments: U2 perform a special show for SiriusXM subscribers. Quality: FLAC 16 bit / 44. Recorded in 24 bit, 96 KHz WAV format using Sony PCM-M10 recorder and Church CA-11 mics & ugly battery box. World's Best Bulletin Board. You can check all the FLAC albums available on the blog by clicking here or accessing the "FLAC" label on the left. The mediafire link is uploaded and shared by Shadow Of Death. flac) Riptype: tracks (630) Quality: lossless. The genre category is: Power metal. San José* 3:00 03 Desde Mi Libertad Written-By - D. Capcom 3: Fate of Two Worlds, Marvel vs. Much has already been written about One Eleven Heavy, so I’ll let the experts do the heavy lifting (here, for instance). 24/7 Customer Service. Los iracundos - 12 grandes éxitos - Formato flac canciones Puerto MonttHace frío yaSoy un mamarrachoTu con élTu me diste amor, tu me diste feFue tormenta de veranoVa cayendo una lagrimaMarionetas de cartón40 gradosTe lo pido de rodillasLas puertas del olvidoQuien te da lo que te daba. Only saw a JP release afaik. 73 MB 06 ごめんなさいのKissing You. com, yandex or rusfolder. This question is for testing whether you are a human visitor and to prevent automated spam submissions. Flac mega nz. Master Recordings - RCA Studio B, Nashville, Tennessee - June 1958. Oobie (3:14). Why Are You Being Like This?. I uploaded high quality audio files in several formats for the 2015-01-21 Manchester Queen + Adam Lambert concert. nz, but also for many of the cloud services that contain warez overall. Uplevel BACK 12. Diffchecker is an online diff tool to compare text to find the difference between two text files. nz, mediafire. The mediafire link is uploaded and shared by magnum1965. 8224MHz | FLAC Tracks / 24bit / 88. Welcome to our audio page, on this page you can download lossy (MP3) and sometimes even the lossless (mostly FLAC) audio recordings (also known as bootlegs) of this show. Reply Delete. wav" WAVE INDEX 01 00:00:00. com, yandex or rusfolder. Pee-wee's Big Adventure and you arrive at MEGA! Amen I am NOT the Owner of this Blog just a friendly helping Hand. Digital Ghost 4. Formats: DSD, CD and higher res quality FLAC, MP3, and a variety of physical media including CD and SACD Notes: Quality formats are in 4 main types - MP3, CD (44. J Dilla - Ruff Draft Beats. Sucio Poder 04. Lossless Music • Jazz • Rock • Alternative • Soul • Folk • Blues Johnny http://www. Style: House, Trance, Chillout Date: 2015 – REVISED 01-Jan-21 Country: Ukraine Label: n/a Catalogue#: n/a Codec: FLAC, (*. com/profile/16994173356902636631 [email protected] You need a mega. nz web client. The Free Hard Music community also provides a free Black metal music downloads of Nebron Discography with full MP3 FLAC album in. Warez-BB respects the rights of others and is committed to helping third parties protect their rights. {Muse The 2nd Law (2012) [FLAC]} Johnston & Brandon Brandon Real Estate Agency. DVD VISION CLIPS COMPLETO [SITE EXTERNO PELO UTORRENT http://torrentking. La communauté Free Hard Music propose aussi des téléchargements de musique de Metal gratuits de System of a Down La discographie est en FLAC l'album est une archive au format. But from this dude’s perspective, it was a truly special night to see a band of this quality in an intimate setting like this. 2004 (Flac). com, yandex or rusfolder. Lineage: Vinyl LP (In Celebration Of The Comet - The Coming Of Kahoutek) > 1st generation copy > Aiwa Tape Deck TC-WE475 > Audiophile 2496 > HD > SoundForge 7. nz Please buy official single/album to support the artists, all content in this blog is for promotional purpose only, we dont responsible for all users. zip archive downloading links from mega. 1kHz 16bit FLAC/Lossless Size: 187. ****Posted by AmazingPudding on The Traders' Den **** Westwood One presents the Superstar Concert Series REO Speedwagon Live in Concert at the Market Street Arena, Indianapolis - 31st December, 1984. We share Heavy metal. Follow by Email. nz, mediafire. Christian Klinkenberg – Der Gletscher (2020) [24bit FLAC] Top Posts. El tesoro de los inocentes 04. [lossless] - audiophile - Best of Guitar Acoustic - Hi-End Audiophile Music - NBR Music - Duration: 1:21:15. 16-bit FLAC Preview Trio Sonata in D Minor, Op. Confisco 02. Tracklist: 01. Cd rip Shikaar 2004. The mediafire link is uploaded and shared by chamame. nz 26 December 2017. 36 MB 03 Now Or Never. We share Black metal. Lil’ Jon (4:13) 2. No recuerdo dónde obtuve estos archivos, pero lo he comparado con los CDs de MYTO y Vocal Archives, y no coinciden ni el número de canciones ni el nombre de estas así que supongo que será de alguna otra fuente, no sé cuál. pro:: EatMe - Bomz:: Renoise 2. Información AC/DC Live es un álbum en vivo de la banda de hard rock Australiana AC/DC lanzada en 1992, tanto como un álbum solo y como álbum doble (conocido como AC/DC Live: 2 CD Collector's Edition). 12, RV 63 "La follia" (Arr. Jenny on [Moozzi2] Slayers Movie & OVA BD-BOX (BD 1524×1080 x. We share Black metal. 02 - Please read the. flac 10 Friends. Synopsis: Compiled from available sources, many amateur shot, LTSO II covers tour footage from late-92, through 93, up to the last show in March 1994 and features live performances, banter, interviews, rare songs, and fan footage - providing an insight into the band's final. Musopen (www. For links MEGA. Donaciones paypal. rar lalitomalabares 0 253. X-Ecutioner Style (Sean C & Roc Raida Feat. Anonymous October 19, 2017. The mediafire link is uploaded and shared by chamame. zip archive downloading links from mega. net Free lossless and surround music download. Lossless | FLAC | MEGA. nz/#!k8khBIjS!3n4LwmJZs9CHm2C May 25, 2020 · The genre category is: AOR. nz, mediafire. List of URLs, ordered from newer to older. Artist's name : Filter Title of album : Crazy Eyes The year it was released : 2016 Quality : 24bit 96kHz HDTracks FLAC. 104,998 Views. 1st - All rips must be in flac (original cd or digital download flac) 2nd - i upload the maxis and cds here to mega. 5 MB Delta Plan - Spherical Perspective Propionic Mix 1 - A1 - (Nova Zembla 77) - 1996. Link: https:// mega. Anonymous October 19, 2017. 2539 Me gusta. Bank of New Zealand: Bank address: 262 Queen Street, Auckland 1010, New Zealand: Beneficiary name: Mega Limited: Beneficiary address: 120 Albert St, Auckland 1010, New Zealand: Account number: 885806-0000: SWIFT code: BKNZNZ22 * IBAN: Not applicable for NZ banks: Reference: Your MEGA account’s registered email address: Amount: €. Style: Trance, House, Chillout, Breaks Date: 2018 – REVISED 01-Jan-21 Country: Ukraine Label: n/a Catalogue#: n/a Codec: FLAC, (*. 2020 (72) junio (2) mayo (2) abril (68) 2019 (168) junio (30) mayo (138) Hammerfall - Hearts On Fire /ORIGINAL STEMS WAV. The genre category is: Black metal. The Danny Elfman & Tim Burton 25th Anniversary Music Box (2011) {17CD} Tracks + cue + log | 3% rar recovery. The Venue Dallas, USA. ( Flac) Pitbull – Rebelution ( Flac ) Pitbull / Armando (2010) Flac; Comentarios recientes. flac Bitrate: ~800kbps Size: 282 mb TRACKLIST: 01 - M. M-02 – TV Anime “Ginga Eiyuu Densetsu: Die Neue These” NHK Edition Opening Theme. But please keep the samples coming !. txt), PDF File (. Maybe Maybe 05. This Blog is all about making available every known available Led Zeppelin concert bootleg spanning their 1968 to 1980 live career. To see the old ads go here. bulats with audio cd and cd-rom. HI RES AUDIO 24 BIT ULTRA HI RES AUDIO STEREO 3033kbps @ 192hz (this file is 966mb) PCM WAV 1411 kbps FLAC (2 CD) YOUT Search This Blog. nz, mediafire. zip archive downloading links from mega. This Blog is all about making available every known available Led Zeppelin concert bootleg spanning their 1968 to 1980 live career. Pitbull – 305 Anthem ft. flac) Riptype: tracks (496. We share Heavy metal. In this video, I show you how to download music online for free. 01] fripSide - only my railgun -version2020- [FLAC][Hi-Res 96kHz-24], infohash. 1kHz 16bit FLAC/Lossless Size: 175. com, yandex or rusfolder. {Muse The 2nd Law (2012) [FLAC]} Johnston & Brandon Brandon Real Estate Agency. flac 14 This Is Love. We share Hard rock, Heavy metal. The Free Lossless Audio Codec comes very handy to store this professional-level recordings. https://uptobox. The Sun Ra Arkestra joins U2 for the first encore. 지구가 태양을 네 번 06. nz/#F!YawDkI6a!qsBFjuEOJbH2gzv-ld1XUQ SOULS MUSIC COLECTION (MP3/320KPBS) https://mega. INFO Codec: 44. Tracklist: CD1 01. (Musicians With Attitude) 02 - Coconut Roads 03 - Every Corner of the World 04 - 6-String Poet 05 - Houston 06 - Along Love's Highway 07 - Deep Light 08 - El Camino Real 09 - South East Quarter 10 - A Last Request IMPORTANT: 01 - Please support the artist. We share Black metal. nz (SINGLE Link). Calderón*, V. Genre Classical Comment by xu3chao. The Free Hard Music community also provides a free Hardcore punk, Oi!, Hardcore music downloads of Everyday Hate Discography with full MP3 FLAC album in. Transfer : Nak BX-300 > Sony PCM-M10 > CD Wave Editor (tracking) > Sound Forge (volume) > Wave > TLH (sbe aligned) Flac 8 Transferred & Tracked by Wes Meyette Traders Den - July 28, 2020. Transfer : Nak BX-300 > Sony PCM-M10 > CD Wave Editor (tracking) > Sound Forge (volume) > Wave > TLH (sbe aligned) Flac 8 Transferred & Tracked by Wes Meyette Traders Den - July 28, 2020. Torrentz - Fast and convenient Torrents Search Engine. Zóio De Lula 03. nz, mediafire. We share Rock and roll. Buckethead - Twisterlend (Pike #39) - Music BucketheadlandTwisterlend by Bucketheadland, released 26 November 2013 1. com, yandex or rusfolder. zip archive downloading links from mega. CDDM005 Stelvio Cipriani - Piranha II (Original Soundtrack) Flac mega. x264-EA [11. nz 02 September 2016. You May Also Like: Punjabi POP By nav4evr at Wednesday, September 02, 2020. Judgment Day 6. Future Life 5. 1kHz +Booklet Total Time: 01:20:56 Total Size: 276 / 615 mb. We share Hard rock, Pop metal. Ana Belen* - Ana (LP 1979) FLAC Sello: CBS - S 83937 Formato: LP, Al bum País: Spain Publicado: 1979 Género: Funk / Soul, Pop Estilo: Ballad Lista de Títulos 01 Agapimú (Amor Mío) Written-By - D. 1 kHz (Tracks) + FLAC 16 bit / 44. 45 MB 03 RTRT. Lossless FLAC music collection. Two as One 04. pheromone a 3. Takeshi Itoh Format:. We share Black metal. Thanks dude. nz, mediafire. Pitbull – 305 Anthem ft. 01 Red Dahlia. Composed by Hajime Hirasawa. Memphis Recording Service. 3 GB | Uploaded by sebubibinman on 2018-07-30 08:00:38 UTC | #170362. Here they are: Flac, Artwork, Info 1992-10-06 Sacramento, CA (IvanF Transfer - G Tape) https://mega. 1kHz 16bit FLAC/Lossless Size: 175. Mirando La Guerra Por Tv 02. nz, mediafire. @nguy-n-ho-ng-minh-900889005: chính xác. 1 kHz (Tracks) / FLAC 24 bit / 44. com Blogger 396 1 25 tag:blogger. The mediafire link is uploaded and shared by Ulverizzed. com, yandex or rusfolder. By continuing to use Pastebin, you agree to our use of cookies as described in the Cookies Policy. zip archive downloading links from mega. ZIP FLAC Saturday, August 1, 2020 music downloads of V/A Discography with full MP3 MP3 320 kbit/s album in. The Free Hard Music community also provides a free Art rock, Classic rock, Blues-rock, Avant-garde music downloads of The Doors Discography with full MP3 FLAC album in. Represión 08. 0r484 **** Outdoor venue at Sunset Station Casino. nz account and a Windscribe account. The Music of EA Games Box Set (6 CDs) (2007) Read more » 3 comments:. The mediafire link is uploaded and shared by M-AnthropoiD. October 31st, 2019 - This has been some what of a disappointing Halloween season. nz/file/CYMQmA6C#tO5P8L5XirQWHnereDJMrWF5RdeeuqjvaeAtg3056jo. Oobie (3:14). Pitbull – She’s Freaky (3:20) 4. GitHub Gist: instantly share code, notes, and snippets. Ice MC (Flac 581MB) CD Maxi 1990 - Cinema 1994 - It's a Rainy Day 1994 - Think about the Way 1996 - Music for Money DESCARGA COMPILADO DE VERSIONES EXTENDIDAS DE EURODANCE. 1kHz 16bit FLAC/Lossless Size: 341. zip Content: Vangelis Discography MP3 320 kbps Downloads: Uploaded: December 16, 2016 at 01:28PM Updated dat. The genre category is: Pop rock. The Free Hard Music community also provides a free Black metal music downloads of Nebron Discography with full MP3 FLAC album in. The available recordings are sorted on the type of recording and the quality of the recording. Megasearch. nz, mediafire. By using our website you agree to the use of cookies as described in our Cookie Policy. We share Rock and roll. 23 MB 02 Ga1ahad and Scientific Witchery. 264 Flac) – TV + SP : “ upload this at mega. nz Please buy official single/album to support the artists, all content in this blog is for promotional purpose only, we dont responsible for all users. nz (SINGLE Link). wav" WAVE INDEX 01 00:00:00. com, yandex or rusfolder. 24/7 Customer Service. 08 Mad Love. Unicorn produced three box sets: Get Back Camera B Rolls UC-S001-S024 - 24 disc box Get Back Camera B Rolls Vol. nz account and a Windscribe account. Donaciones paypal. You May Also Like: Punjabi POP By nav4evr at Wednesday, September 02, 2020. Black Thought) 9. A La Misa Con Kresta - Harina Del Mismo Costal (2014) FLAC. bulats with audio cd and cd-rom. zip archive downloading links from mega. Hold on, it's going to come back with a better bittorrent site. RMMCD101, released 2013) > Eac > Flac 1. nz, mediafire. Quality : Flac Lossless Tracklist : 1. com, yandex or rusfolder. Marvin Gaye – Let’s Get It On (1973) {2003, Reissue, Hi-Res SACD Rip} SACD Rip | ISO / DSD / 1bit / 2. 1kHz +Booklet Total Time: 01:20:56 Total Size: 276 / 615 mb. Artist: New Zealand String Quartet Title: Asian Music for String Quartet: Tan Dun, Toru Takemitsu, Gao Ping, Chinary Ung, Zhou Long Year Of Release: 2012 Label: Naxos Genre: Classical Quality: FLAC (image+. nz ) submitted 2 years ago by FiveYearsAgoOnReddit to r/FiveYearsAgoOnReddit. October 31st, 2019 - This has been some what of a disappointing Halloween season. wav" WAVE INDEX 01 00:00:00 TRACK 17 AUDIO TITLE "See How The Love Goes" PERFORMER "The Pointer Sisters" INDEX 00 04:13:19 FILE "Pointer Sisters - The Best Of (1989) FLAC\17 Pointer Sisters - The Best Of - See How The Love Goes. 1st - All rips must be in flac (original cd or digital download flac) 2nd - i upload the maxis and cds here to mega. flac support, and other streaming improvements. 59 MB 04 THE NEVER ENDING STORY ~君に秘密を教えよう~. bin file to play on PCSX2 here: The key is 4ZzHEKSlzVfsmtpnMsJPhQ Jak and Daxter Japanes…. 23 MB 02 Ga1ahad and Scientific Witchery. nz 26 December 2017. Flac mega nz. The mediafire link is uploaded and shared by chamame. The Free Hard Music community also provides a free Heavy metal music downloads of V. bin file to play on PCSX2 here: The key is 4ZzHEKSlzVfsmtpnMsJPhQ Jak and Daxter Japanes…. pheromone a 3. Note: although this guide was initially created in 2006, it has been updated to be current in 2020. ZIP FLAC Saturday, August 1, 2020 music downloads of V/A Discography with full MP3 MP3 320 kbit/s album in. I thought that i had it but i think i have the mix IEM/AUD (?) if it exists (or only the audience recording). Frgt/10 (Alchemist Feat. x264-EA [11. To see the old ads go here. zip archive downloading links from mega. Indexing 61,110,440 torrents from 206,042,677 pages on 76 domains. The Free Hard Music community also provides a free Rock and roll, Roots rock music downloads of Charly Garcia Discography with full MP3 MP3 128 kbit/s album in. flac 19 Give You Up (Mark Knight Remix). Consequently, we have decided to make this new version available to you, revised by us. La piba del Blockbuster. Buckethead Discography 1991 2012 [FLAC]. The Free Hard Music community also provides a free Black metal music downloads of Nebron Discography with full MP3 FLAC album in. [06:57] Dove Project - Shooting Star (Airborne US Mix) [07:07] Dutch featuring Crystal Waters - My Time (Lee Cabrera Remix) [03:18] Dutch featuring Crystal Waters - My Time (Radio Edit). Love Poem 03. The genre category is: Rock and roll. 73 MB 06 ごめんなさいのKissing You. Enrique Iglesias - Bailamos - CDM1 - FLAC Tracklist. The mediafire link is uploaded and shared by magnum1965. flac Bitrate: ~900kbps Size: 336 mb TRACKLIST: 01 - Mountain High 02 - Sky Fortress Laputa 03 - FANTASTIC POWERS 04 - Attack of the Eve Aliens 05 - SKY SWIMMER'S HEAVEN. The official nine inch nails website. Le lien Mediafire est mis en ligne et partagé par Saints69. Michael Kiwanuka Home Again CD FLAC 2012 EMG Rar Michael Kiwanuka Home Again CD FLAC 2012 EMG Rar Under the general image recovery for the date are supported. - Page 2 of 50. all the credits to original ripper "gurwi" compiled & provided. nz, mediafire. Quality : Flac Lossless Tracklist : 1. Artist's name : Filter Title of album : Crazy Eyes The year it was released : 2016 Quality : 24bit 96kHz HDTracks FLAC. Latin Dance CDM music release in Lossless (FLAC)Audio quality. Tracklist: CD1 01. El tesoro de los inocentes 04. nz, mediafire. zip téléchargeable depuis les liens mega. Users who like Nơi Này Có Anh Sơn Tùng MTP [FLAC]. 1 kHz (Tracks) / FLAC 24 bit / 44. 1 kHz (Tracks) Artist: David Bowie Title: Transmission Impossible - Legendary Radio Broadcasts From The 1970s - 1990s [3CD] Released: 2018 Style: Rock, Pop Rock, Soul RAR Size: 1. com Blogger 396 1 25 tag:blogger. com, yandex or rusfolder. Recorded in 24 bit, 96 KHz WAV format using Sony PCM-M10 recorder and Church CA-11 mics & ugly battery box. 526 vacation rentals to book online direct from owner in Flic en Flac, Rivière Noire District. is a bi-directional switch that lets you choose between two 3. Download thousands of free house music, dj mixes & dj tracks from the internets largest free house music community. net Free lossless and surround music download. 1 Comment · Full Story. Baby Rasta y Gringo – Los Cotizados (Flac) Descargar Mega; Visionary – Farruko (Flac) Descargar Mega; Pitbull – M. Blog sobre opera y Giuseppe di Stefano. 2020 (72) junio (2) mayo (2) abril (68) 2019 (168) junio (30) John Legend & The Roots - Shine /ORIGINAL STEMS WAV. Maxi Dance Sensation Collection (1990-1997) Vol 1 ao 27 (Ape Lossless) [By Tucano DJ] (ATUALIZADO PARA O SERVIDOR MEGA) VOLUME 1 (1990) MÚSICAS 1. Uplevel BACK 12. From mediafire. flac 17 Thank You (Live Acoustic). We share Rock and roll, Roots rock. The mediafire link is uploaded and shared by huehu3gg. 39 GB_Pirate most of files are lossy files 98% , these are mp3 to flac converted files. yayaya (Remix ver. flac 15 What Am I Doing Here. (27-03-2017, 08:10 PM) wheatthincabbage Wrote: Recently bought the newest Snail's House album, mp3 and FLAC. 4 Mie Haed (Amp Live Feat. You need 2 programs on your computer: MEGAsync and Windscribe. Takeshi Itoh Format:. Star Fox 1's OST in FLAC. DJ Geo a scris: Are cineva aceste albume: Andre - Noapte de vis 3 Sud Est - Te voi pierde 3 Sud Est - 3 Sud Est mix 3 Sud Est - Discul A. Two as One 04. com, yandex or rusfolder. wav" WAVE INDEX 01 00:00:00. 2017-02-16T05:15:10Z. [06:57] Dove Project - Shooting Star (Airborne US Mix) [07:07] Dutch featuring Crystal Waters - My Time (Lee Cabrera Remix) [03:18] Dutch featuring Crystal Waters - My Time (Radio Edit). We share Psychedelic rock, Space rock. NZ, allowing you to easily download files from MEGA. Hi everyone, I just find out there was an IEM tape of Boston 1999-08-27 (the night with NYC Serenade) that was circulating. Torrent Info for [2020. Do We Do We. nz, mediafire. Maybe Maybe 05. Fisheye Lens 08. 1 point · 1 year ago. New Album Releases – download full albums, daily updates!. 2004 (Flac). Recorded in 24 bit, 96 KHz WAV format using Sony PCM-M10 recorder and Church CA-11 mics & ugly battery box. Calderón*, V. Some songs are from the crossovers of Marvel vs. Lil’ Jon (4:13) 2. The mediafire link is uploaded and shared by magnum1965. nz, mediafire. The Free Hard Music community also provides a free Hard rock, Heavy metal music downloads of Ron Wasserman Discography with full MP3 FLAC album in. Nokia 3310 Ringtones Flac Download mp3 download free size:6. The Free Hard Music community also provides a free Pop rock music downloads of V. https://mega. bulats with audio cd and cd-rom. Vacation rentals available for short and long term stay on HomeAway. com, yandex or rusfolder. Para Que Estoy Aquí? 05. 5 MB Delta Plan - Spherical Perspective Propionic Mix 1 - A1 - (Nova Zembla 77) - 1996. @nguy-n-ho-ng-minh-900889005: chính xác. We share Rock and roll, Roots rock. Thank you @famouswhendead aka other me - a decent rip. Pitbull – She’s Freaky (3:20) 4. flac) Riptype: tracks (496. The mediafire link is uploaded and shared by Shadow Of Death. Promise Me 06. 02 - Please read the. Musica Lossless en Español. The Free Hard Music community also provides a free Art rock, Classic rock, Blues-rock, Avant-garde music downloads of The Doors Discography with full MP3 FLAC album in. com, yandex or rusfolder. zip archive downloading links from mega. The Free Hard Music community also provides a free Hard rock, Heavy metal music downloads of Ron Wasserman Discography with full MP3 FLAC album in. A companion / homage to the original LTSO. com/b6alxc5ccmij https://drive. Digital Ghost 4. Decompose 02. Random Posts:. flac 13 Just Because. 264 Flac) – Movie + OVA: “ Can reupload a Mega? Link dead 🙁 ” Aug 22, 15:35 Alif on [ReinForce] Hello World (BDRip 1920×1080 x264 FLAC) : “ the link is dead please update it thanks ” Aug 22, 08:47. October 31st, 2019 - This has been some what of a disappointing Halloween season. 1 kHz (Tracks) Artist: Roy Head Title: Same People (That You Meet Going Up, You Meet Coming Down) Released: 1970 / 2020 Style: R&B, Funk / Soul RAR Size: 213 / 379 Mb. 8224MHz | FLAC Tracks / 24bit / 88. The Free Hard Music community also provides a free Rock and roll, Roots rock music downloads of Charly Garcia Discography with full MP3 MP3 128 kbit/s album in. zip archive downloading links from mega. San José* 3:00 03 Desde Mi Libertad Written-By – D. Note: although this guide was initially created in 2006, it has been updated to be current in 2020. com, yandex or rusfolder. 36 MB 03 Now Or Never. 1kHz +Booklet Total Time: 01:20:56 Total Size: 276 / 615 mb. Style: House, Trance, Chillout Date: 2015 – REVISED 01-Jan-21 Country: Ukraine Label: n/a Catalogue#: n/a Codec: FLAC, (*. flac 12 Have To Stay. The Free Hard Music community also provides a free Black metal music downloads of Nebron Discography with full MP3 FLAC album in. Memphis Recording Service. The Free Hard Music community also provides a free Krautrock, Progressive rock music downloads of Can Discography with full MP3 FLAC album in. dEpEchE modE - 25/10/1982, Hammersmith Odeon, London [FLAC] Dave Gahan - 07/06/2003, Nurburgring (Rock am Ring) [Soundboard] dEpEchE modE - 1990, World Violation Tour Backing Tapes. M-02 – TV Anime “Ginga Eiyuu Densetsu: Die Neue These” NHK Edition Opening Theme. flac 16 Hurricanes (Live Acoustic). 23 MB 02 Ga1ahad and Scientific Witchery. April 23rd 1990. @ Pirate bro R. 11 points · 1 year ago. The software scan corrupted jpeg files and extract thumbnails. check it //mega. zip archive downloading links from mega. Maxi Dance Sensation Collection (1990-1997) Vol 1 ao 27 (Ape Lossless) [By Tucano DJ] (ATUALIZADO PARA O SERVIDOR MEGA) VOLUME 1 (1990) MÚSICAS 1. OK, I Understand. Two as One 04. mega mega mega mega mega by rq, released 04 november 2013 1. com, yandex or rusfolder. all the credits to original ripper "alcro titann" mega. nz, mediafire. flac Bitrate: ~800kbps Size: 282 mb TRACKLIST: 01 - M. We share Hard rock, Heavy metal. Advertisements are for free. NZ You no need buy premium Account. By continuing to use Pastebin, you agree to our use of cookies as described in the Cookies Policy.